Dupload.ORG cambia dominio in Dupload.NET, la colpa e' dell'agcom che ha oscurato il dominio.
Jdownloader sta provvedendo ad effettuare il cambio del dominio.
A tutti gli UTENTI PREMIUM sono stati aggiungi 10giorni in piu' di abbonamento, GRATUITAMENTE.
Ci scusiamo per il disservizio. Staff - mkv
La casa nel vento dei morti (2012) .avi DvDRip AC3 6ch 448 Kbps – ITA

Autore:   |   Data: 20-04-13 0:18  |   Visite:     

USCITA CINEMA: 27/04/2012
GENERE: Drammatico, Horror
REGIA: Francesco Campanini
SCENEGGIATURA: Luca Magri, Chiara Agostini
ATTORI:
Luca Magri, Francesco Barilli, Marco Iannitello, Nina Torresi, Sara Alzetta, Paola Crecchi, Valeria Colombo, Annalisa Schettino, Adriano Guareschi, Loredana Piedimonte, Fabio De Caro
Ruoli ed Interpreti

FOTOGRAFIA: Raoul Torresi
MONTAGGIO: Buono Pellegrini
MUSICHE: Lelio Padovani
PRODUZIONE: Campanini Francesco- Produzioni cinematografiche e di video
PAESE: Italia 2012
DURATA: 90 Min
FORMATO: Colore

Trama del film La casa nel vento dei morti:
Negli anni Quaranta, Attilio, un affascinante attore caduto in disgrazia, organizza insieme ad altri tre disperati una rapina ai danni di un ufficio postale. Durante la fuga sono costretti ad attraversare a piedi pianure, fiumi, boschi e montagne. Il loro piano di fuga procede come previsto, quando tutto sembra andare per il meglio, la loro avventura si trasforma in un incubo da cui non riusciranno ad uscirne.

 

Spoiler

General
Complete name : La.Casa.Nel.Vento.Dei.Morti.2012.iTALiAN.DVDRip.XviD-TRL.avi
Format : AVI
Format/Info : Audio Video Interleave
File size : 1.37 GiB
Duration : 1h 26mn
Overall bit rate : 2 254 Kbps
Writing application : VirtualDubMod 1.5.10.2 (build 2540/release)
Writing library : VirtualDubMod build 2540/release

Video
ID : 0
Format : MPEG-4 Visual
Format profile : Advanced Simple@L5
Format settings, BVOP : Yes
Format settings, QPel : No
Format settings, GMC : No warppoints
Format settings, Matrix : Default (MPEG)
Codec ID : XVID
Codec ID/Hint : XviD
Duration : 1h 26mn
Bit rate : 1 796 Kbps
Width : 640 pixels
Height : 352 pixels
Display aspect ratio : 16:9
Frame rate : 25.000 fps
Resolution : 8 bits
Colorimetry : 4:2:0
Scan type : Progressive
Bits/(Pixel*Frame) : 0.319
Stream size : 1.09 GiB (80%)
Writing library : XviD 1.2.1 (UTC 2008-12-04)

Audio
ID : 1
Format : AC-3
Format/Info : Audio Coding 3
Codec ID : 2000
Duration : 1h 26mn
Bit rate mode : Constant
Bit rate : 448 Kbps
Channel(s) : 6 channels
Channel positions : Front: L C R, Side: L R, LFE
Sampling rate : 48.0 KHz
Stream size : 278 MiB (20%)
Alignment : Split accross interleaves
Interleave, duration : 40 ms (1.00 video frame)
Interleave, preload duration : 500 ms


DOWNLOAD
LINK INTERSCAMBIABILI

http://anonypaste.co/AcKUPcY6

I volumi di ripristino, o file .rev, sono file speciali creati da WinRAR e che possono essere utilizzati per ricostruire uno o più volumi mancanti o danneggiati di un archivio multi-volume.

VUOI RINGRAZIARCI ? DIVENTA O RINNOVA IL TUO ACCOUNT PREMIUM CLICCANDO SU QUESTO BANNER


eXTReMe Tracker