Dupload.ORG cambia dominio in Dupload.NET, la colpa e' dell'agcom che ha oscurato il dominio.
Jdownloader sta provvedendo ad effettuare il cambio del dominio.
A tutti gli UTENTI PREMIUM sono stati aggiungi 10giorni in piu' di abbonamento, GRATUITAMENTE.
Ci scusiamo per il disservizio. Staff - mkv
L'Ultimo Terrestre 2011 BRRip ITA 1,37 GB

Autore:   |   Data: 10-12-11 8:43  |   Visite:     

terrestre

L’ultimo terrestre

Titolo originale: L’ultimo terrestre
Nazione: Italia
Anno: 2011
Genere: Drammatico, Commedia
Durata: 96′
Regia: Gianni Pacinotti
Sito ufficiale: www.ultimoterrestre.it

Cast: Gabriele Spinelli, Anna Bellato, Roberto Herlitzka, Teco Celio, Sara Rosa Losilla, Paolo Mazzarelli, Luca Marinelli, Ermanna Montanari, Stefano Scherini
Produzione: Fandango
Distribuzione: Fandango
Data di uscita: Venezia 2011
09 Settembre 2011 (cinema)

Trama:
La storia si svolge durante l’ultima settimana prima dell’arrivo di una civiltà extraterrestre sulla terra. Un arrivo annunciato dai governi. Una notizia in seconda serata, che non ha entusiasmato nessuno. Gli extraterrestri trovano un paese stanco e disilluso, in una crisi economica conclamata e gravissima. Le reazioni delle persone alla venuta degli extraterrestri vanno da quella razzista a strampalate interpretazioni mistico-religiose. Questa è l’ambientazione che ospita la nostra storia. Ma il film non racconta la storia di un popolo; segue invece la vita di Luca Bertacci, un uomo con enormi problemi di relazione, un uomo che, abbandonato dalla madre quando era piccolo, è cresciuto nell’odio per le femmine. Nella diffidenza e, soprattutto, nell’incapacità di provare sentimenti. Ma l’arrivo degli extraterrestri cambierà tutto. Difficile, al termine della storia, non pensare che questi extraterrestri con il loro arrivo tanto simile a un “giudizio universale“ siano alla fine venuti sulla terra solo per lui. Come un regalo.

Info File (avinapic)

General
Unique ID : 254388530016887788626974078846205715309 (0xBF6172E112498233AC88B3152958636D)
Complete name : C:UsersrootDesktopL.Ultimo.Terrestre.2011.iTALiAN.BRRip.XviD-EgL.mkv
Format : Matroska
File size : 1.37 GiB
Duration : 1h 39mn
Overall bit rate : 1 961 Kbps
Encoded date : UTC 2011-12-10 07:13:08
Writing application : mkvmerge v4.5.0 (‘Speed of Light’) built on Feb 1 2011 02:10:32
Writing library : libebml v1.2.0 + libmatroska v1.1.0

Video
ID : 1
Format : MPEG-4 Visual
Format profile : Advanced Simple@L5
Format settings, BVOP : Yes
Format settings, QPel : No
Format settings, GMC : No warppoints
Format settings, Matrix : Default (MPEG)
Codec ID : XVID
Codec ID/Hint : XviD
Duration : 1h 39mn
Bit rate : 1 282 Kbps
Width : 720 pixels
Height : 304 pixels
Display aspect ratio : 2.35:1
Frame rate : 24.000 fps
Color space : YUV
Chroma subsampling : 4:2:0
Bit depth : 8 bits
Scan type : Progressive
Compression mode : Lossy
Bits/(Pixel*Frame) : 0.244
Stream size : 914 MiB (65%)
Writing library : XviD 1.2.0.dev47 (UTC 2006-11-01)

Audio
ID : 2
Format : AC-3
Format/Info : Audio Coding 3
Mode extension : CM (complete main)
Muxing mode : Header stripping
Codec ID : A_AC3
Duration : 1h 39mn
Bit rate mode : Constant
Bit rate : 640 Kbps
Channel(s) : 6 channels
Channel positions : Front: L C R, Side: L R, LFE
Sampling rate : 48.0 KHz
Bit depth : 16 bits
Compression mode : Lossy
Stream size : 456 MiB (33%)

vlcsnap 2011 12 10 09h08m56s65 vlcsnap 2011 12 10 09h09m05s179 vlcsnap 2011 12 10 09h09m55s148

vlcsnap 2011 12 10 09h10m04s250 vlcsnap 2011 12 10 09h10m20s154 vlcsnap 2011 12 10 09h10m32s23

Visualizza links

http://www.fileserve.com/file/a6xb77V

http://www.fileserve.com/file/myGerAU

http://www.fileserve.com/file/6P6RbX3

http://www.fileserve.com/file/ZfXPpub

Visualizza links

http://www.filesonic.com/file/4155308124/ultimoterrmkv.part1.rar

http://www.filesonic.com/file/4155401154/ultimoterrmkv.part2.rar

http://www.filesonic.com/file/4155492524/ultimoterrmkv.part3.rar

http://www.filesonic.com/file/4155500314/ultimoterrmkv.part4.rar


eXTReMe Tracker