The Fast and the Furious: Tokyo Drift 2006 BRRip ITA 1, 37 GB


Autore:   |   Data: 24-04-13 9:22  |   Visite:     

Per evitare di finire in prigione, Sean Boswell si trasferisce a Tokyo dove vive suo padre. Nel giro di poco tempo entra in contatto anche qui con il mondo delle corse clandestine d’auto…


Titolo: The Fast and the Furious: Tokyo Drift
Titolo originale: The Fast and the Furious: Tokyo Drift
Nazione: USA
Anno: 2006
Genere: Azione
Durata: 104′
Regia: Justin Lin


Lucas Black, Brandon Brendel, Zachery Ty Bryan, Daniel Booko, David V. Thomas, Amber Stevens




VIDEO: EgL
AUDIO: BluRay


Spoiler
General
Complete name : The.Fast.And.The.Furious.Tokyo.Drift.2006.iTALiAN.BRRip.XviD-EgL.avi
Format : AVI
Format/Info : Audio Video Interleave
File size : 1.37 GiB
Duration : 1h 44mn
Overall bit rate : 1 883 Kbps
Writing application : VirtualDubMod 1.5.10.2 (build 2540/release)
Writing library : VirtualDubMod build 2540/release
Video
ID : 0
Format : MPEG-4 Visual
Format profile : Advanced Simple@L5
Format settings, BVOP : 3
Format settings, QPel : No
Format settings, GMC : No warppoints
Format settings, Matrix : Default (MPEG)
Codec ID : XVID
Codec ID/Hint : XviD
Duration : 1h 44mn
Bit rate : 1 234 Kbps
Width : 720 pixels
Height : 304 pixels
Display aspect ratio : 2.35:1
Frame rate : 23.976 fps
Color space : YUV
Chroma subsampling : 4:2:0
Bit depth : 8 bits
Scan type : Progressive
Compression mode : Lossy
Bits/(Pixel*Frame) : 0.235
Stream size : 920 MiB (66%)
Writing library : XviD 1.2.0.dev47 (UTC 2006-11-01)
Audio
ID : 1
Format : AC-3
Format/Info : Audio Coding 3
Mode extension : CM (complete main)
Codec ID : 2000
Duration : 1h 44mn
Bit rate mode : Constant
Bit rate : 640 Kbps
Channel(s) : 6 channels
Channel positions : Front: L C R, Side: L R, LFE
Sampling rate : 48.0 KHz
Bit depth : 16 bits
Compression mode : Lossy
Stream size : 477 MiB (34%)
Alignment : Split accross interleaves
Interleave, duration : 42 ms (1.00 video frame)
Interleave, preload duration : 500 ms


Spoiler
http://www.easybytez.com/410fgh20uaob/f&f3.part01.rar

http://www.easybytez.com/hjp7bwurbt23/f&f3.part01.rev


http://www.easybytez.com/lpel95oumav5/f&f3.part02.rar


http://www.easybytez.com/iohiqqivewkx/f&f3.part02.rev


http://www.easybytez.com/mm9wufe2s1k4/f&f3.part03.rar


http://www.easybytez.com/9s6pdb6jbwp6/f&f3.part03.rev


http://www.easybytez.com/s0frmfd44wia/f&f3.part04.rar


http://www.easybytez.com/8glces0pj071/f&f3.part05.rar


http://www.easybytez.com/9klohiq3wmv8/f&f3.part06.rar


http://www.easybytez.com/eeaf3qx45ltt/f&f3.part07.rar


http://www.easybytez.com/z2ja152v8zz4/f&f3.part08.rar


http://www.easybytez.com/6f9bs3325ylh/f&f3.part09.rar


http://www.easybytez.com/jz4e9jsdqrp9/f&f3.part10.rar


http://www.easybytez.com/icn30edqp68p/f&f3.part11.rar


http://www.easybytez.com/qb1zd1ktp4og/f&f3.part12.rar


http://www.easybytez.com/z0rg8re87q6y/f&f3.part13.rar

Password: EgL


Spoiler
http://www.ddlstorage.com/folder/7cJ1UyL94F

Password: EgL




eXTReMe Tracker